osu file format v14

[General]
AudioFilename: 29 Jingle Bells 765 Version.mp3
AudioLeadIn: 1500
PreviewTime: 40102
Countdown: 0
SampleSet: Normal
StackLeniency: 0.7
Mode: 1
LetterboxInBreaks: 0
WidescreenStoryboard: 1

[Editor]
DistanceSpacing: 0.9
BeatDivisor: 4
GridSize: 32
TimelineZoom: 1

[Metadata]
Title:Jingle Bells 765 Version
TitleUnicode:ジングルベル第765番
Artist:Masubuchi Yuuji
ArtistUnicode:増渕裕二
Creator:DakeDekaane
Version:Kantan
Source:太鼓の達人
Tags:Taiko no Tatsujin Christmas Folk
BeatmapID:560080
BeatmapSetID:242688

[Difficulty]
HPDrainRate:4
CircleSize:5
OverallDifficulty:3
ApproachRate:5
SliderMultiplier:1.4
SliderTickRate:2

[Events]
//Background and Video events
0,0,"Masubuchi Yuuji - Jingle Bells 765 Version - Background.png",0,-50
//Break Periods
//Storyboard Layer 0 (Background)
//Storyboard Layer 1 (Fail)
//Storyboard Layer 2 (Pass)
//Storyboard Layer 3 (Foreground)
//Storyboard Sound Samples

[TimingPoints]
514,428.571428571429,4,1,0,70,1,0
2228,428.571428571429,5,1,0,70,1,0
4370,428.571428571429,4,1,0,70,1,0
40370,-100,4,1,0,70,0,1
57512,-100,4,1,0,70,0,0
60941,-100,4,1,0,70,0,1
64370,-100,4,1,0,70,0,0

[HitObjects]
256,192,514,5,8,0:0:0:0:
256,192,1371,1,8,0:0:0:0:
256,192,2228,1,8,0:0:0:0:
256,192,4370,1,0,0:0:0:0:
256,192,5227,1,0,0:0:0:0:
256,192,6084,1,0,0:0:0:0:
256,192,6941,1,8,0:0:0:0:
256,192,7798,1,0,0:0:0:0:
256,192,8655,1,0,0:0:0:0:
256,192,9512,1,0,0:0:0:0:
256,192,9941,1,8,0:0:0:0:
256,192,10370,1,0,0:0:0:0:
256,192,11227,1,0,0:0:0:0:
256,192,12084,1,0,0:0:0:0:
256,192,12941,1,0,0:0:0:0:
256,192,13798,1,8,0:0:0:0:
256,192,14655,1,0,0:0:0:0:
256,192,15512,1,8,0:0:0:0:
256,192,16370,1,8,0:0:0:0:
256,192,16798,1,8,0:0:0:0:
256,192,17227,1,0,0:0:0:0:
256,192,18084,1,8,0:0:0:0:
256,192,18941,1,8,0:0:0:0:
256,192,19798,1,0,0:0:0:0:
256,192,20227,1,0,0:0:0:0:
256,192,20655,1,8,0:0:0:0:
256,192,21512,1,0,0:0:0:0:
256,192,24941,1,8,0:0:0:0:
256,192,25798,1,8,0:0:0:0:
256,192,26655,1,0,0:0:0:0:
256,192,27084,1,0,0:0:0:0:
256,192,27512,1,8,0:0:0:0:
256,192,28370,1,0,0:0:0:0:
256,192,30084,1,0,0:0:0:0:
256,192,30941,1,0,0:0:0:0:
256,192,31370,1,0,0:0:0:0:
256,192,31798,1,0,0:0:0:0:
256,192,32655,1,0,0:0:0:0:
256,192,33084,1,0,0:0:0:0:
256,192,33512,1,8,0:0:0:0:
256,192,34370,1,8,0:0:0:0:
256,192,35227,2,0,B|512:192|512:192|512:0|512:0|352:0,1,560,,,0:0:0:0:
256,192,40370,1,0,0:0:0:0:
256,192,40798,1,0,0:0:0:0:
256,192,41227,1,8,0:0:0:0:
256,192,42084,1,0,0:0:0:0:
256,192,42512,1,8,0:0:0:0:
256,192,42941,1,0,0:0:0:0:
256,192,43798,1,0,0:0:0:0:
256,192,44655,1,8,0:0:0:0:
256,192,45512,1,8,0:0:0:0:
256,192,45941,1,0,0:0:0:0:
256,192,46370,1,8,0:0:0:0:
256,192,47227,1,0,0:0:0:0:
256,192,47655,1,0,0:0:0:0:
256,192,48084,1,8,0:0:0:0:
256,192,48941,1,0,0:0:0:0:
256,192,49370,1,8,0:0:0:0:
256,192,49798,1,0,0:0:0:0:
256,192,50655,1,0,0:0:0:0:
256,192,51512,1,8,0:0:0:0:
256,192,52370,1,0,0:0:0:0:
256,192,52798,1,0,0:0:0:0:
256,192,53227,1,0,0:0:0:0:
256,192,54084,1,8,0:0:0:0:
256,192,54941,1,8,0:0:0:0:
256,192,55798,1,0,0:0:0:0:
256,192,56227,1,0,0:0:0:0:
256,192,56655,1,8,0:0:0:0:
256,192,57512,1,0,0:0:0:0:
256,192,60941,1,8,0:0:0:0:
256,192,61798,1,8,0:0:0:0:
256,192,62655,1,0,0:0:0:0:
256,192,63084,1,0,0:0:0:0:
256,192,63512,1,8,0:0:0:0:
256,192,64370,1,0,0:0:0:0:
256,192,66084,1,0,0:0:0:0:
256,192,66941,1,0,0:0:0:0:
256,192,67370,1,0,0:0:0:0:
256,192,67798,1,0,0:0:0:0:
256,192,68655,1,0,0:0:0:0:
256,192,69084,1,0,0:0:0:0:
256,192,69512,1,8,0:0:0:0:
256,192,70370,1,8,0:0:0:0:
256,192,71227,2,0,B|512:192|512:192|512:0|512:0|352:0,1,560,,,0:0:0:0:
